Details for this torrent 

A P Bio Season 2. revittony
Type:
Video > TV shows
Files:
15
Size:
1.76 GiB (1889605367 Bytes)
Info:
IMDB
Tag(s):
tt6461726
Uploaded:
2019-06-20 15:30:18 GMT
By:
revittony1 Trusted
Seeders:
11
Leechers:
5
Comments
0  

Info Hash:
B3027E6D41BE2B748DBFCCC61FEE1FE3B9566CE9




 https://www.imdb.com/title/tt6461726



Format : MPEG-4 
Format profile : Base Media 
Codec ID : isom (isom/iso2/avc1/mp41) 
File size : 210 MiB 
Duration : 21 min 29 s 
Overall bit rate : 1 365 kb/s 
Encoded date : UTC 2019-03-08 08:35:04 
Tagged date : UTC 2019-03-08 08:35:04 
Writing application : Lavf58.20.100 

Video 
ID : 1 
Format : AVC 
Format/Info : Advanced Video Codec 
Format profile : [email protected] 
Format settings : CABAC / 5 Ref Frames 
Format settings, CABAC : Yes 
Format settings, Reference frames : 5 frames 
Codec ID : avc1 
Codec ID/Info : Advanced Video Coding 
Duration : 21 min 29 s 
Bit rate : 1 100 kb/s 
Width : 720 pixels 
Height : 400 pixels 
Display aspect ratio : 16:9 
Frame rate mode : Constant 
Frame rate : 23.976 (24000/1001) FPS 
Color space : YUV 
Chroma subsampling : 4:2:0 
Bit depth : 8 bits 
Scan type : Progressive 
Bits/(Pixel*Frame) : 0.159 
Stream size : 170 MiB (81%) 
Writing library : x264 core 152 r2851M ba24899 
Language : English 
Encoded date : UTC 2019-03-08 08:35:04 
Tagged date : UTC 2019-03-08 08:35:04 
Codec configuration box : avcC 

Audio 
ID : 2 
Format : AAC LC 
Format/Info : Advanced Audio Codec Low Complexity 
Codec ID : mp4a-40-2 
Duration : 21 min 29 s 
Duration_LastFrame : -11 ms 
Bit rate mode : Constant 
Bit rate : 256 kb/s 
Channel(s) : 2 channels 
Channel layout : L R 
Sampling rate : 48.0 kHz 
Frame rate : 46.875 FPS (1024 SPF) 
Compression mode : Lossy 
Stream size : 39.4 MiB (19%) 
Language : English 
Default : Yes 
Alternate group : 1 
Encoded date : UTC 2019-03-08 08:35:04 
Tagged date : UTC 2019-03-08 08:35:04